Ffmpeg Super Resolution

m2v -b:v 2000k -vcodec mpeg2video -filter:v yadif -s 256x240 superd. This reminds me of the XFree86 / x. No need to be familiar with AviSynth to use the predefined Avanti/AviSynth pre-processor options. Enhanced Deep Residual Networks for Single Image Super-Resolution (EDSR), winner of the NTIRE 2017 super-resolution challenge. Ffmpeg Convert Rtmp To Rtsp software free downloads. At first, i tried as a still image conversion, but if you want to convert a movie, you can extract all the frames as a still image with ‘ffmpeg’, run super resolution conversion, and connect with ffmpeg to return to the movie. At best it’s the same quality. Best alternative to FFmpeg to convert MOV to MP4 and other 1000+ video formats on Windows/Mac. A major advantage of this technique is the large depth of field (up to 10–15 µm deep) that can be imaged with high resolution. eval in the answer has been eliminated for a super simple solution that I somehow missed despite staring at the documentation for. I t's cold outside! So grab a copy of the Hackaday Podcast, and catch up on what you missed this week. avi -filter:v scale=720:-1 -c:a copy output. For example, to use bilinear instead of the default bicubic scaling: ffmpeg -i test. mkv is a Matroska container file and accepts video, audio and subtitle streams, so ffmpeg will try to select one of each type. Here is the command you may want to try: ffmpeg -i video. FFmpeg is a collection of libraries and tools to process multimedia content such as audio, video, subtitles and related metadata. Originally based on Softlanding Linux System, Slackware has been the basis for many other Linux distributions, most notably the first versions of SUSE Linux distributions, and is the oldest distribution that is still maintained. If you not sure, set Base (Canvas) Resolution = main input resolution (game resolution) = Output (Scaled) Resolution. Depending on the shape of the underlying features, these artifacts can be varied and hard to undo. There are three output files specified, and for the first two, no -map options are set, so ffmpeg will select streams for these two files automatically. I am using the following command to use my Nikon as a webcam: sudo modprobe v4l2loopback && gphoto2 --stdout --capture-movie | ffmpeg -i - -vcodec rawvideo -pix_fmt yuv420p -threads 0 -f v4. Blender was using two slightly different strategies to load a video frame depending on if we were advancing to nearby frames or seeking from far away. VLC Mixing Audio and Silent Video Now we add a Audio source in this case a test. mp4 2>&1 | grep Video: | grep -Po '\d{3,5}x\d{3,5}' 1280x720. The only goal of restoration is to create a product that looks better than the source. Victure IP camera offers super fluent sound on both side by using anti-noise technology. Upscaling – including from SD to HD – does never increase the quality of the image. constant qp). But until now, super-resolution methods have been impractical for use in imaging living cells. Wang Cao Thu, 25 Jun 2020 10:53:40 -0700. 0 and higher, support for Package. ffmpeg -i input. With Infognition Video Enhancer you can: Increase resolution of your video with motion-search-based Super Resolution than 220 VirtualDub filters for. Convert Mp4 To Gif Convert Avi To Mp4. PotPlayer Overview. In fact, it is all. AVFoundation media device list ffmpeg -f avfoundation -list_devices. Although the nominal lateral (xy) and axial (z) resolution of a microscope is the most prominent system parameter, the. Install ffmpeg on your device $ brew install ffmpeg --with-openh264 --with-fdk-aac. 9 % Test CRC 548D7B4C Copy CRC 548D7B4C Copy OK Track 3. 000 fps Resolution : 8 bits Colorimetry : 4:2:0 Scan type : Progressive Bits/(Pixel*Frame) : 0. Wang Cao Thu, 25 Jun 2020 10:53:40 -0700. Recommended tool in Windows is SUPER, and in Linux is FFMPEG, i. flac -filter_complex acrossfade=d=10:c1=exp:c2=exp output. 3 has a use-after-free via a crafted EXTINF duration in an m3u8 file because parse_playlist in libavformat/hls. If you try to run it on Far Cry 4, you would notice a hit. ogg audacious play. exe file and execute relevant commands. In this example we use DALI with the VideoReader operator to supply data for training a video super-resolution network implemented in PyTorch. Skip to main content 搜尋此網誌 Tfyuky. 9w r5 released. gif -hide_banner The above command reduces the video resolution from 500×300 to 160×190, thus considerably reducing the size of the output gif. I am using the following command to use my Nikon as a webcam: sudo modprobe v4l2loopback && gphoto2 --stdout --capture-movie | ffmpeg -i - -vcodec rawvideo -pix_fmt yuv420p -threads 0 -f v4. Recently I found out that you can actually enable Nvidia's Dynamic Super Resolution with PotPlayer, which means you can resize videos to 2715x1527 or higher. It offers plenty of tools for you to play the video, convert the formats, stream live broadcast and even analyze the multimedia stream. Go to download. tif -vf scale=504:376 -sws_flags bilinear out. Encoded packets are then passed to the decoder (unless streamcopy is selected for the stream, see further for a description). YAFFplayer can play all video formats supported by FFmpeg but I essentially tested the. --vbv-maxrate (x264)-maxrate (FFmpeg) Specifies the maximum bitrate at any point in the video. If an FFMPEG option is available we recommend you try that first as it will often be faster and include audio support. Replicating:-see T72347. In this tutorial we will look most wanted and useful features like convert, resize,… of ffmpeg. avi -acodec aac -vcodec mpeg4 -mbd 2 -cmp 2 -subcmp 2 -s 7680x4320 output. Many modern high speed and high resolution cameras have data rate in the range of 200-2400 MByte/s or even more and it's quite complicated to capture and to save that stream to HDD/SSD. mp4 -ss 00:00:18. 264 video compression standard (eg. The FFmpeg solution described above utilizes this model and has N FFmpeg instances. This video is a part of https://hhsprings. It's the same for WMP, VLC (where it breaks seeking to a specific time: e. /ffmpeg -formats command to list all supported formats. FFmpeg utility supports almost all major audio and video formats, if you want to check the ffmpeg supported available formats you can use. Thanks Telepoint and MediaHub for their support! September 29th, 2015, GSoC 2015 results. Step-by-step. But again, tone. tif -vf scale=504:376 -sws_flags bilinear out. Stack Overflow Public questions and answers; Teams Private questions and answers for your team; Enterprise Private self-hosted questions and answers for your enterprise; Jobs Programming and related technical career opportunities. MPEG2 files created from file rendering profiles are less likely to be compatible with DVD software. In this example we use DALI with the VideoReader operator to supply data for training a video super-resolution network implemented in PyTorch. [FFmpeg-devel,1/7] libavfilter: Adds on the fly generation of default DNN models for tensorflow bac… - - - ----2018-08-06: Sergey Lavrushkin: New [FFmpeg-devel,GSOC] On the fly generation of default DNN models and code style fixes - - - ----2018-07-28: Sergey Lavrushkin: New [FFmpeg-devel,GSOC] ESPCN super-resolution - - - ----2018-06-28. The name of the command is the name of the option and the argument is the. If you don't want to see it, you can add the -loglevel panic option to tell FFmpeg to only print serious errors and questions. FFmpeg got a total of 8 assigned projects, and 7 of them were successful. HDCP is an OS level compliance and can't be fixed with a fancier browser, so you'll need Windows (or a. A number of template examples are included. Followed the above tutorial, we managed to do Youtube Live streaming by using the Yoosee Wi-Fi cameras. mp4 ffmpeg -i rtmp://localhost:6060 -listen -vcodec copy -acodec copy bla. FFmpeg got a total of 8 assigned projects, and 7 of them were successful. 05*PTS" fast. This reminds me of the XFree86 / x. These options are marked 'T' on the output of ffmpeg -h filter=. Resolution, in terms of TV hardware, refers to the number of pixels that compose the picture on the TV. This is another example of using FFMPEG to manipulate video and audio files. " This technique is as user-friendly to lay folks as "noncommutative algebraic geometry. PotPlayer is a Video Player for your PC or mobile device. If we want to extract just a single frame (-vframes 1) from the video into an image file, we do:ffmpeg -i yosemiteA. The video filter is specified by -filter:v. FFMPEG will run, detect input file, create output file and convert it. Super Resolution for VirtualDub Promotion Codes. FFmpeg is widely used among super users for varied video procession goals. 3 has a use-after-free via a crafted EXTINF duration in an m3u8 file because parse_playlist in libavformat/hls. mpg ffmpeg -i superd. video output. Brought to you by Headjack. Skip to main content 搜尋此網誌 Tfyuky. The video resolution information allows you to confirm the quality of the video that you are watching. Desktop tutorial settings. Change resolution of video files. Most popular. 9w r5 released. "srcnn", "Super-Resolution Convolutional Neural Network model Thoughts and hints on how to cross-compile a static x64 ffmpeg with --enable-libtensorflow (cpu based and maybe even optionally an opencl based tensorflow if at all possible) would be much appreciated. " This technique is as user-friendly to lay folks as "noncommutative algebraic geometry. [00:38] anything involving a mouse [00:38] citizeen, even aim is better in term [00:38] citizeen: take it to #ubuntu-offtopic [00:39] mikejet, mine says 9. I was wondering is there a way of setting a custom resolution, like in x264 in SUPER if you click "more" twice it comes up with the dialog box where you can enter a. Load the images into an imageDatastore. mp4 -r 30 -s 1280x720 -codec:v libtheora -qscale:v 5 -codec:a libvorbis -qscale:a 3 Ukidig. mp4, which has the highest resolution among all the input video streams. The easiest way to install ffmpeg is to download a pre-built binary for your specific platform. --vbv-maxrate (x264)-maxrate (FFmpeg) Specifies the maximum bitrate at any point in the video. ffmpeg -i input. In case you need a more complex ffmpeg configuration, e. Reduce the resolution of the input video. transitions, voiceovers, changing the resolution and frame rate, and more. The main issue is which codecs you use. FFMPEG guide for E815 video conversion HowardForums is a discussion board dedicated to mobile phones with over 1,000,000 members and growing! For your convenience HowardForums is divided into 7 main sections; marketplace, phone manufacturers, carriers, smartphones/PDAs, general phone discussion, buy sell trade and general discussions. FFmpeg is a collection of libraries and tools to process multimedia content such as audio, video, subtitles and related metadata. Results will vary, depending on the many factors discussed below. >Now things are a little more fair and at least FFmpeg more or less states that is a derivative of Libav with additional features in their download page. About the download, QE SuperResolution is a relatively. avi is just a container. After running the above command, the ffmpeg software will detect the rtsp codec information, then start to upload video stream to Youtube RTMP server. Which sets the target video bitrate to 8000 Kbps or 8 Mbps, and the AC-3 audio bitrate, including the pass through bitrate, to 640 Kbps. I'd like to use a Teradek Cube connected to a broadcast camera to push to a server running ffmpeg with an open RTMP port, and have ffmpeg re-stream that feed to a decoder using RTMP or RTSP. Open the Mi Home app and enter the camera's control interface to change the resolution ratio. Currently there is a feature. 3GP, AVI, AC3, MP3), output settings, as well as batch operations. 3GP, AVI, AC3, MP3), output settings, as well as batch operations. Why I can't install ffmpeg on CentOS 7 I want to install ffmpeg to my CentOS 7 server but I can't, it say we missing some libs that I can't find where and how to. In this case, one would like to replace the second audio stream in a video file by another audio file. Using ffmpeg to convert a set of images into a video. 1280x720, 1423 kb/s, q=-1--1, 25 fps, 12800 tbn, 25 tbc. tif cause ffmpeg said that no video for the original or the converted ones with. What's new Apr 30, 2006 - The ffmpegX website has moved to a new host and has a new address. Replicating:-see T72347. This is all news to me but the FFMpeg / libav split and apparent attempted coup d'etat of FFMPEG the other year all looks very sad. re: Issue T72347. Vmconnect Vmconnect. 100+ High Resolution HDRIs? No sign-up, instant downloads 16384 x 8192 resolution Unclipped, full dynamic range. Subscribe to this blog. Changing Options at Runtime with a Command. One can utilize h264 encoding as well, but please bear in mind, that there are some limitations on output resolution, and you won't be able to do such encoding for arbitrary resolution of your footage. We can convert avi to mp4 with the following command. ffmpeg will fail if you provide incorrect values, but it can provide a list of what is accepted. I used it like this: ffmpeg -i source. Be smart and learn. avi is not the main issue. FFmpeg is surely the best bet. mkv is a Matroska container file and accepts video, audio and subtitle streams, so ffmpeg will try to select one of each type. It only takes a minute to sign up. I've only seen people use. Step one, I convert the 192-48 or 96-48 file (usually FLAC or AIFF or WAV format) to WAV or AIFF format, specifying 48 kHz sampling rate, 16 bit resolution. Or, $ ffmpeg -i input. Create a low-resolution image that will be used to compare the results of super-resolution using deep-learning to the result using traditional image processing techniques such as bicubic interpolation. First, get the full path to your ffmpeg. Downloaded mp4 video file 1080P resolution. For example, to use bilinear instead of the default bicubic scaling: ffmpeg -i test. mp4 Extract Audio From Video File. FFmpeg is the leading multimedia framework, able to decode, encode, transcode, mux, demux, stream, filter and play pretty much anything that humans and machines have created. It uses Artificial Intelligence, which makes images bigger without making it blurry saving its quality at the same time. Hello, I\'m running CloudLinux Server release 6. PotPlayer is a Video Player for your PC or mobile device. Convert video resolution via FFMPEG [4K to 1080p and vice versa] Rename the video file to a simple name. But again, tone. Which sets the target video bitrate to 8000 Kbps or 8 Mbps, and the AC-3 audio bitrate, including the pass through bitrate, to 640 Kbps. Art Font subtitle,. Watch Queue Queue. Any way to increase resolution in DOOM 2016, Wolfenstein II in docked mode? cucholix - Jun 16, 2020 at 1:40 PM. Some options can be changed during the operation of the filter using a command. The reason i'm posting here is because I don't want to be "yelled" at Hanbrake forums (they aren't friendly). It's available for users with the operating system Windows 98 and former versions, and it is available in English. Created in 2000, it is a powerful command-line tool that runs on Linux, Windows and Mac operating systems. Would it work with. In this case, one would like to replace the second audio stream in a video file by another audio file. TOREAD: An ffmpeg and SDL Tutorial, dranger. "srcnn", "Super-Resolution Convolutional Neural Network model Thoughts and hints on how to cross-compile a static x64 ffmpeg with --enable-libtensorflow (cpu based and maybe even optionally an opencl based tensorflow if at all possible) would be much appreciated. ffmpeg-i input. 0 1440x900 59. Many modern high speed and high resolution cameras have data rate in the range of 200-2400 MByte/s or even more and it's quite complicated to capture and to save that stream to HDD/SSD. Fixe errors: recordMyDesktop is a great screen-capturing program but it sometimes creates video files with incorrect key frames. This reminds me of the XFree86 / x. This option is ignored in case the commandline option -n is specified. Getting memory errors. Specifying scaling algorithm. FFmpeg and its photosensitivity filter are not making any medical claims. Visit Stack Exchange. I wish to do the following. avi -vf scale=160:90 agif_160x90. YAFFplayer is an application made with GeeXLab. [FFmpeg-devel,1/7] libavfilter: Adds on the fly generation of default DNN models for tensorflow bac… - - - ----2018-08-06: Sergey Lavrushkin: New [FFmpeg-devel,GSOC] On the fly generation of default DNN models and code style fixes - - - ----2018-07-28: Sergey Lavrushkin: New [FFmpeg-devel,GSOC] ESPCN super-resolution - - - ----2018-06-28. Using free time lapse software ffmpeg on a Mac with your GoPro HERO3 There’s something surreal about a time lapse video. 064 Stream size : 2. with 350+ preset profiles for Apple and Android devices, including the latest iPhone X/8/7/Plus/SE/6s, Samsung Galaxy. 5 feature updates include: Sync on FFmpeg svn r25202. Skip to main content 搜尋此網誌 Tfyuky. Extract Image Every Second ffmpeg \ -i input. Enhanced Deep Residual Networks for Single Image Super-Resolution (EDSR), winner of the NTIRE 2017 super-resolution challenge. avi -an -vcodec mpeg4 -pass 1 -b 1280k -s 640x480 -aspect 2. mpg -t 00:00:05 -vcodec copy -acodec copy newfile. 0 1440x900 59. The test data set, testImages, contains 21 undistorted images shipped in Image Processing Toolbox™. mp4 -vf scale=1920x1080 resizedvideo. FFmpeg 64-bit is the leading multimedia framework, able to decode, encode, transcode, mux, demux, stream, filter and play pretty much anything that humans and machines have created. Router Screenshots for the Sagemcom Fast 5260 - Charter. mp4 -c:v libx264 -crf 23 output. 123 -f image2 -vframes 1 yosemite. Resolution plugin for After Effects serial keys, keygen, key codes, license key or license crack. 0 and higher. 264 decoding option and set it to All. You can increase bitrates for both video and audio with much better codec. The max resolution allowed is FFmpeg is a powerful tool that makes taking a photo super easy. avi jellyfish. The ffmpeg download page seems to be open about including code from libav, but uh, additional features could be major. To solve that problem one could do real time JPEG compression on GPU to increase duration time of video recording to 10-20 times. Especially on rapid movements, lots of pixelish stuff. flac · Cross fade from one input to another but without overlapping: ffmpeg -i first. The program version is 0. Multimedia tools downloads - Virtualdub FFMpeg Input Plugin by Karl Pritchett and many more programs are available for instant and free download. 9y released. New MB86M31 Delivers Major Performance Boost for Real-Time 4K/60p Video Encoding; SUNNYVALE, Calif. In fact, it is all. Specifying scaling algorithm. flac -filter_complex acrossfade=d=10:o=0:c1=exp:c2=exp output. mp4 -r 30 -s 1280x720 -codec:v libtheora -qscale:v 5 -codec:a libvorbis -qscale:a 3 Ukidig. Replicating:-see T72347. "Donating to help keep FFmpeg online is our way of giving back to the community". Results will vary, depending on the many factors discussed below. Which sets the target video bitrate to 8000 Kbps or 8 Mbps, and the AC-3 audio bitrate, including the pass through bitrate, to 640 Kbps. [FFmpeg-devel] [PATCH v3] avcodec/libaomenc. Xaymar and this will likely change one FFmpeg Encoders is merged into StreamFX. " It's also like saying one prefers an abacus over a calculator. Note that this filter is not FDA approved, nor are we medical professionals. The network implemented, VSRNet, uses an odd number of successive frames randomly sampled. [FFmpeg-devel] [PATCH v3] avcodec/libaomenc. FFmpeg; Pulse-density modulation (PDM) Direct Stream Digital (DSD) is standard for Super Audio CD. Install ffmpeg on your device $ brew install ffmpeg --with-openh264 --with-fdk-aac. " It's also like saying one prefers an abacus over a calculator. Create a low-resolution image that will be used to compare the results of super-resolution using deep-learning to the result using traditional image processing techniques such as bicubic interpolation. Brought to you by Headjack. But you many need a front end GUI if you're not a tech-head. Go to Input / Codecs > Video codecs > FFmpeg. SUPER (Simplified Universal Player Encoder & Renderer) is a GUI to FFmpeg, MEncoder, MPlayer, x264, musepack, monkey's audio, true audio, wavpack, ffmpeg2theora and the theora/vorbis RealProducer plug-in. Stack Overflow Public questions and answers; Teams Private questions and answers for your team; Enterprise Private self-hosted questions and answers for your enterprise; Jobs Programming and related technical career opportunities. To solve that problem one could do real time JPEG compression on GPU to increase duration time of video recording to 10-20 times. Video analysis. mov tells ffmpeg which video to convert. It picks the ``best'' of each based upon the following criteria: for video, it is the stream with the highest resolution, for audio, it is the stream with the most channels, for subtitles, it is the first subtitle stream. It can re-encode videos and join, merge or split videos at ones will. ffmpeg has a sort of similar filter: NNEDI3. GitHub Gist: instantly share code, notes, and snippets. We replicate the network described in End-to-End Learning of Video Super-Resolution with Motion Compensation. Since the program was added to our catalog in 2005, it has managed to obtain 8,107 downloads, and last week it gained 12 downloads. ffmpeg -f v4l2 -r 30 -s 640x480 -an -sn -i /dev/video0 -f avi temp Unfortunately fps is too low for 640x480 (around. js is not 5. But how does it work, and is it enough to get us. However, you have to manually navigate to the FFmpeg folder in Command Prompt to access the ffmpeg. mp4 -filter:v "setpts=0. ffmpeg is the command that does all sorts of things to videos. The video filter is specified by -filter:v. Enlarge image without losing quality Image Upscaler is an online service that upscales images and photos in 4 times. We consider here a SD video file having square pixels. wav -f rtp rtp://224. Frame rate tells us the number of frames per second the video is. What's new Apr 30, 2006 - The ffmpegX website has moved to a new host and has a new address. Testing a new medium 5 minute 16x9 h264 video. 1 Full Version Feature: • Video Enhancer can upscale computerized recordings to any determination with wonderful quality: be it 480p to 720p, 720p to 1080p. High-NA TIRF-SIM for 91 frames at 4-second intervals in a COS-7 cell expressing mEmerald-clathrin (green) and mCherry-Lifeact (orange-red). mp4 -vf scale=480x320,setsar=1:1 %s_annShrink. if I click to the half of the video, it tries to seek. Compiling FFmpeg from Source Code: All-in-One Script to Install Audio Video Codecs and the FFmpeg Suite. Over 30 frames per second with top quality makes around 30 millions pixel per second. Step-by-step. c: Add super-resolution options to libaom wrapper. Note that this filter is not FDA approved, nor are we medical professionals. Install ffmpeg on your device $ brew install ffmpeg --with-openh264 --with-fdk-aac. The network implemented, VSRNet, uses an odd number of successive frames randomly sampled. FFmpeg is surely the best bet. libavcodec provides implementation of a wider range of codecs. mpeg -vcodec mpeg4 video. Download (Installer) Portable (. 264 video encoder, featuring exceptional video quality, next-gen performance, SRT streaming, and the highest available 4K UHD and HD encoding density. Stack Exchange network consists of 177 Q&A communities including Stack Overflow, the largest, most trusted online community for developers to learn, share their knowledge, and build their careers. Hello, I\'m running CloudLinux Server release 6. 19 FFmpeg Commands For All Needs FFmpeg is a multiplatform, open-source library to record, convert and stream video and audio files. Under Handbrake when selecting MP4 you get two (5 in total incl. mp4 Extract Audio From Video File. FFMPEG Command. Then "upscale" the "down-rezzed" video to the original frame size, again keeping the same aspect ratio and frame rate. mpg ffmpeg -i superd. Read on, you should not miss the fast user guide. If audio file reside in the current folder, FFmpeg will include it automatically. m4a libmp3lame¶. This can be done super easily: ffmpeg -ss 00:00:30 -i orginalfile. But how does it work, and is it enough to get us. On the other hand, this could break in certain situations - it's the FFmpeg API, you just can't win. Step one, I convert the 192-48 or 96-48 file (usually FLAC or AIFF or WAV format) to WAV or AIFF format, specifying 48 kHz sampling rate, 16 bit resolution. FFmpeg can be used to encode videos into difference formats. mp4 The audio is synchronised all right, but the video length is displayed incorrectly in players: they show 30 min (of the original video) instead of 1. As this code tries to super-resolve the video by 4x, if one tries to super resolve 1080p video, one needs video card memory that can handle 1080x4 pixels. Now these supposed "super-resolution" packages are just snake-oil. I have also searched Macrumours. High resolution audio (hi-res audio, high-definition audio) is musical formats (digital signals) with resolutions above 16 bit/44. That's why I decided to create this cheat sheet which shows some of the most often used commands. FFmpeg FFmpeg is a powerful multimedia framework which allows us to decode, encode, transcode, stream, filter and play most of the media content available now. mpg -t 00:00:05 -vcodec copy -acodec copy newfile. duration, d Specify the duration of the fade effect. png Extract a Portion of a Video. Although the nominal lateral (xy) and axial (z) resolution of a microscope is the most prominent system parameter, the. You can specify the audio and video codecs used by input files. Download (Installer) Portable (. Downloaded mp4 video file 1080P resolution. Investigate the problem using a breakpoint:. A Tensorflow 2. I tested same UHD file before to encode MXF DNxHD with a script like this: ffmpeg -i -vcodec dnxhd -b:v 145M -an -sws_flags lanczos -vf "scale=1920:1080, smartblur=1. mp3 -acodec pcm_mulaw -b:a 64 -ac 1 -ar 8000 -f rtp rtp://224. Read on, you should not miss the fast user guide. Ppsspp Turbo Ppsspp Turbo. Resolution, in terms of TV hardware, refers to the number of pixels that compose the picture on the TV. Only telling ffmpeg to encode using libaacplus or libfdk_aac should result in he aac encodes. mpeg -vcodec mpeg4 video. com How Video Works, M. Ffmpeg Convert Rtmp To Rtsp software free downloads. I tried the command: ffmpeg -i %s_ann. FFmpeg is a free software project that produces libraries and programs for handling multimedia data. Over 30 frames per second with top quality makes around 30 millions pixel per second. Load the images into an imageDatastore. mp4 The audio is synchronised all right, but the video length is displayed incorrectly in players: they show 30 min (of the original video) instead of 1. You can also use Super Resolution in an Avisynth script and feed that as an input to ffmpeg, provided your ffmpeg is compiled with Avisynth support. If the resolution of the input file is not in the filename, or when pipe is used, the input resolution must also be given: --input-res=1920x1080. Created in 2000, it is a powerful command-line tool that runs on Linux, Windows, and Mac. It all depends on the game. Formats | FFVCL - Delphi FFmpeg VCL Components include a powerful video encoder VCL component for converting audio & video files from one format to another format and a video player VCL component for play various kinds of audio & video files without any other codecs. Here is the command you may want to try: ffmpeg -i video. ffmpeg has a sort of similar filter: NNEDI3. To create the "Stretch It" box checked in SUPER from ffmpeg command line, for 2 pass encoding I did this: ffmpeg -i clip. Nome File: Comando per il download #1: 1. In FFmpeg you can use the -s switch to set the resolution of the output but this is a not flexible solution. Compiling FFmpeg from Source Code: All-in-One Script to Install Audio Video Codecs and the FFmpeg Suite. 0 1440x900 59. Change Video Resolution: ffmpeg -y -i /sdcard/in. What's new Sep 22, 2006 - Added a new guide: How to encode a movie in h. This article provides a complete, ready-to-execute script to obtain, build, and install the FFmpeg suite alongside a selection of audio video codecs, and is a supplement to my detailed guide Compiling Software from Source Code on the Raspberry Pi. With Infognition Video Enhancer you can: Increase resolution of your video with motion-search-based Super Resolution than 220 VirtualDub filters for. Challenges and trade-offs in super-resolution fluorescence microscopy. Ffmpeg Convert Rtmp To Rtsp software free downloads. What's new Oct 2, 2006 - ffmpegX 0. Compiling FFmpeg from Source Code: All-in-One Script to Install Audio Video Codecs and the FFmpeg Suite. FFMPEG will run, detect input file, create output file and convert it. 03 Convert videos to MP4 without FFmpeg. TOFlow: Video Enhancement with Task-Oriented Flow. 9 % Test CRC 548D7B4C Copy CRC 548D7B4C Copy OK Track 3. flac -i second. I have videos with different resolution. Any way to increase resolution in DOOM 2016, Wolfenstein II in docked mode? cucholix - Jun 16, 2020 at 1:40 PM. In this example we use DALI with the VideoReader operator to supply data for training a video super-resolution network implemented in PyTorch. You can also use Super Resolution in an Avisynth script and feed that as an input to ffmpeg, provided your ffmpeg is compiled with Avisynth support. Sometimes, a video might have a high resolution theoretically, but may just contain noise/ pixelated. GitHub Gist: instantly share code, notes, and snippets. 264 high resolution (640-width) for the iPod Jul 1, 2006 - ffmpegX 0. Extract Image Every Second ffmpeg \ -i input. ffmpeg tool; FAQs 1. Enhanced Deep Residual Networks for Single Image Super-Resolution (EDSR), winner of the NTIRE 2017 super-resolution challenge. HDtracks is a high-resolution music platform for music lovers to download their favorite tracks in master studio quality. FFmpeg Project Logo – Image: Wikicommons. VLC Mixing Audio and Silent Video Now we add a Audio source in this case a test. Super - GUI for ffmpeg, mencoder, ffmpeg2theora, theora/vorbis RealProducer plugins MPEG-4 Encoder GUIs. flac -filter_complex acrossfade=d=10:o=0:c1=exp:c2=exp output. FFMPEG Command. 9y released. ffmpeg -i input. No matter what source you are going to utilize with FFmpeg (screen, camera, file) - you can even set it up with a command line: Mac OS. Go to download. The FFmpeg manual mention a technique called Super Resolution, and it comes in two forms: SRCNN : Super-Resolution Convolutional Neural Network model ESPCN : Efficient Sub-Pixel Convolutional Neural Network model. Thanks again Michael for your help. It has built in all the required video codecs and audio codecs to encode from and into any. I am using the following command to use my Nikon as a webcam: sudo modprobe v4l2loopback && gphoto2 --stdout --capture-movie | ffmpeg -i - -vcodec rawvideo -pix_fmt yuv420p -threads 0 -f v4. Stretch guest (no resolution change) Virtual machine resolution settings are retained, but the display still changes to fill the full screen. [00:38] anything involving a mouse [00:38] citizeen, even aim is better in term [00:38] citizeen: take it to #ubuntu-offtopic [00:39] mikejet, mine says 9. It offers plenty of tools for you to play the video, convert the formats, stream live broadcast and even analyze the multimedia stream. ffmpeg -i /dev/video0 -frames 1. Ah, here you go. Apparently when such a file exists in the movie or series folder the scanner will go stuck on it, (probably) while trying to extract an image for the file. As this code tries to super-resolve the video by 4x, if one tries to super resolve 1080p video, one needs video card memory that can handle 1080x4 pixels. Recommended tool in Windows is SUPER, and in Linux is FFMPEG, i. Encoded packets are then passed to the decoder (unless streamcopy is selected for the stream, see further for a description). foobar2000 Super Audio CD Decoder (based on MPEG-4 DST reference decoder) FFmpeg (based on dsd2pcm) Pulse-amplitude modulation (PAM) Lossless compression. m2v -b:v 2000k -vcodec mpeg2video -filter:v yadif -s 256x240 superd. Video analysis. I've noticed that when choosing a resolution to encode in HEVC in SUPER, it has only a number of preset resolutions, and when I try to encode a widescreen movie, it gets stretched. A major advantage of this technique is the large depth of field (up to 10–15 µm deep) that can be imaged with high resolution. Resolution plugin for After Effects serial keys, keygen, key codes, license key or license crack. I am using the following command to use my Nikon as a webcam: sudo modprobe v4l2loopback && gphoto2 --stdout --capture-movie | ffmpeg -i - -vcodec rawvideo -pix_fmt yuv420p -threads 0 -f v4. What's new Oct 2, 2006 - ffmpegX 0. Blender was using two slightly different strategies to load a video frame depending on if we were advancing to nearby frames or seeking from far away. TOREAD: An ffmpeg and SDL Tutorial, dranger. [FFmpeg-devel] [PATCH v3] avcodec/libaomenc. [Solved] Choppy Stuttering 4K 60fps Video Playback in VLC. For the final word, once VFW codecs were installed, feel free to use cvCreateCaptureFromFile to open a video file. Convert for countless devices. A Tensorflow 2. bmp See the scaler documentation for more info. Many modern high speed and high resolution cameras have data rate in the range of 200-2400 MByte/s or even more and it's quite complicated to capture and to save that stream to HDD/SSD. One of the more complex aspects of super-resolution is getting rid of aliasing artifacts such as Moire patterns and jaggies that arise when high frequency content is rendered in lower resolution (as is the case when images are purposefully degraded). Recently I found out that you can actually enable Nvidia's Dynamic Super Resolution with PotPlayer, which means you can resize videos to 2715x1527 or higher. Avanti comes as a portable. Challenges and trade-offs in super-resolution fluorescence microscopy. That's why I decided to create this cheat sheet which shows some of the most often used commands. Welcome to this 1. mp4 -c:v vp9 -c:a libvorbis output. Under Handbrake when selecting MP4 you get two (5 in total incl. exe file and execute relevant commands. ffmpeg can be as simple as ‘ffmpeg -i input. FFmpeg FFmpeg is a powerful multimedia framework which allows us to decode, encode, transcode, stream, filter and play most of the media content available now. org splits, the EGCS/GCC splits etc. Slackware aims for design stability and simplicity and to be the most "Unix-like" Linux. making a smaller resolution will result in smaller filesize. You can set a target type as follows: add -target type; type can of the following be vcd, svcd, dvd, dv, pal-vcd or ntsc-svcd on the command line. Mirror Download Link Video Enhancer 2. [Solved] Choppy Stuttering 4K 60fps Video Playback in VLC. 265 (HEVC) / H. libavcodec provides implementation of a wider range of codecs. 5 hours long hands-on project on Image Super Resolution using Autoencoders in Keras. the 3 audio) codec options - FFmpeg and H264. [FFmpeg-devel] [PATCH v3] avcodec/libaomenc. With appropriate dyes, a resolution of 30 nm can be achieved in x and y, and the z resolution is comparable to conventional confocal microscopy. Only telling ffmpeg to encode using libaacplus or libfdk_aac should result in he aac encodes. Ffmpeg Convert Rtmp To Rtsp software free downloads. Upscaling - including from SD to HD - does never increase the quality of the image. It uses Artificial Intelligence, which makes images bigger without making it blurry saving its quality at the same time. mp4: 336 MB: 1280x720, 1465 kb/s, q=-1--1, 30 fps, 15360 tbn, 30 tbc a level of support within a profile specifies the maximum picture resolution, frame rate, and bit rate that a decoder may use. I am using the following command to use my Nikon as a webcam: sudo modprobe v4l2loopback && gphoto2 --stdout --capture-movie | ffmpeg -i - -vcodec rawvideo -pix_fmt yuv420p -threads 0 -f v4. Multimedia tools downloads - Virtualdub FFMpeg Input Plugin by Karl Pritchett and many more programs are available for instant and free download. video' - but it very rarely is. FFmpeg is a multiplatform, open-source library used to record, convert, and stream video and audio files. 05*PTS" fast. This will make a Matroska container with a VP9 video stream and a Vorbis audio stream, essentially the same as the WebM we made earlier. Avanti GUI is a free front-end for FFmpeg with the option to insert AviSynth as pre-processor. avi" There is a limitation on the file size. ffmpeg can be as simple as ‘ffmpeg -i input. Adobe Premiere, Avid Media Composer, and Davinci Resolve can experience choppiness, stuttering, and even crashes. eval in the answer has been eliminated for a super simple solution that I somehow missed despite staring at the documentation for. gif -hide_banner The above command reduces the video resolution from 500×300 to 160×190, thus considerably reducing the size of the output gif. Example VideoReader usage: Video Super-Resolution¶. SUPER can manipulate and produce many multimedia file formats supported by its back-end programs. 264 -bsf h264_mp4toannexb -vcodec libx264 out00. Why I can't install ffmpeg on CentOS 7 I want to install ffmpeg to my CentOS 7 server but I can't, it say we missing some libs that I can't find where and how to. AVFoundation media device list ffmpeg -f avfoundation -list_devices. Therefore, for __N__ FFmpeg instances, we will have N decoders, N scalers, and N encoders altogether. To create the "Stretch It" box checked in SUPER from ffmpeg command line, for 2 pass encoding I did this: ffmpeg -i clip. FFMPEG will run, detect input file, create output file and convert it. Then you don't have to worry about including and installing all the right dependencies and codecs you will be using. What's new Apr 30, 2006 - The ffmpegX website has moved to a new host and has a new address. 1, we introduce the flrst of two novel applications of super-resolution in medical imaging. On Windows, this path might look like C:/ffmpeg/ffmpeg. mp4 -r 30 -s 1280x720 -codec:v libtheora -qscale:v 5 -codec:a libvorbis -qscale:a 3 Ukidig. flac acrusher Reduce audio bit resolution. It would be fantastic if I. mp4 as well?. FFmpeg and its photosensitivity filter are not making any medical claims. AMD Encoder Plugin: Patch 2. or convert your 250 frame cube render to a super-crispy lossless h264 of unparalleled awesomeness. Stack Overflow Public questions and answers; Teams Private questions and answers for your team; Enterprise Private self-hosted questions and answers for your enterprise; Jobs Programming and related technical career opportunities. Step-by-step. Be smart and learn. mov tells ffmpeg which video to convert. ffmpeg encoding H. Convert a video to CD or DVD format. FFmpeg is Super -- blazingly fast. Some of the uses of FFmpeg are: Video Compress Audio Compress Video Cut Video Rotate Video Crop Extract Picture from Video Extract Sound from Video Change Video Resolution Adding filters to videos Creating fast…. It only takes a minute to sign up. Far more control is provided by the filter “scale”. FFmpeg is one of the most powerful tools for video transcoding and manipulation, but it's fairly complex and confusing to use. 265 encoded video is the half of H. The network implemented, VSRNet, uses an odd number of successive frames randomly sampled. Sometimes, a video might have a high resolution theoretically, but may just contain noise/ pixelated. mp4 2>&1 | grep Video: | grep -Po '\d{3,5}x\d{3,5}' 1280x720. Investigate the problem using a breakpoint:. 0: MPlayer 1. ffmpeg -i all_grabs. Apr 5, 2016. You can increase bitrates for both video and audio with much better codec. mp4 format because MP4 files are very common, especially when you download videos from youtube with… youtube-dl. FFmpeg is a powerful tool compatible with major Operating Systems (Linux, Mac, Windows). mp4 Cut time segment from Video:. mp4 -filter:v scale=1280:720 -c:a copy output. The output of this command will change depending on the version of FFmpeg you have. In the next part of the talk, Nick digs a little deeper into how super resolution works and how he tested ffmpeg's implementation of super resolution. There are three output files specified, and for the first two, no -map options are set, so ffmpeg will select streams for these two files automatically. video output. FFmpeg FFmpeg is a powerful multimedia framework which allows us to decode, encode, transcode, stream, filter and play most of the media content available now. avi -vf scale=160:90 agif_160x90. In terms of video conversion, the FFmpeg substitute for Mac can convert video of 3D 360 VR, 720P, 1080P, 4K UHD any resolution, any formats, convert MKV to MP4 Mac/Windows, MOV to WMV, FLV to AVI, MP4 to MP3, H. 224:21414/live. FFmpeg has added a realtime bright flash removal filter to libavfilter. ffmpeg -r 29. avi vids use older style codecs (eg XviD) which are fine, but are larger for the same quality when compared to the later generation of codecs. But you many need a front end GUI if you're not a tech-head. " It's also like saying one prefers an abacus over a calculator. mp4 ffmpeg -i rtmp://localhost:6060 -listen -vcodec copy -acodec copy bla. That is, if you want to do something useful with it, it will never be that simple. With the help of these tools, you. bmp See the scaler documentation for more info. 7 is not installed and it is also not available in the official yum repository of CentOS 7 as well. mkv -i audio. --vbv-maxrate (x264)-maxrate (FFmpeg) Specifies the maximum bitrate at any point in the video. Resize or Change the Resolution of a Video Using Handbrake. 1) and current FFmpeg development version (FFmpeg master). Hello, I\'m running CloudLinux Server release 6. mp4 format because MP4 files are very common, especially when you download videos from youtube with… youtube-dl. This option is ignored in case the commandline option -n is specified. How to watermark all files in folder with ffmpeg? (Windows). FFmpeg README. with 350+ preset profiles for Apple and Android devices, including the latest iPhone X/8/7/Plus/SE/6s, Samsung Galaxy. ffmpeg -i input. HDtracks is a high-resolution music platform for music lovers to download their favorite tracks in master studio quality. Especially on rapid movements, lots of pixelish stuff. 100+ High Resolution HDRIs? No sign-up, instant downloads 16384 x 8192 resolution Unclipped, full dynamic range. com How Video Works, M. [FFmpeg-devel,1/7] libavfilter: Adds on the fly generation of default DNN models for tensorflow bac… - - - ----2018-08-06: Sergey Lavrushkin: New [FFmpeg-devel,GSOC] On the fly generation of default DNN models and code style fixes - - - ----2018-07-28: Sergey Lavrushkin: New [FFmpeg-devel,GSOC] ESPCN super-resolution - - - ----2018-06-28. Read on, you should not miss the fast user guide. mp4 -c:v libx264 -crf 23 output. If you don't want to see it, you can add the -loglevel panic option to tell FFmpeg to only print serious errors and questions. More about QE SuperResolution. wav -c:a libfdk_aac -profile:a aac_he -b:a 64k output. To create a VCD, you can run the following command:. constant qp). If you specify a qscale level. Convert a video to CD or DVD format. What's new Apr 30, 2006 - The ffmpegX website has moved to a new host and has a new address. As this code tries to super-resolve the video by 4x, if one tries to super resolve 1080p video, one needs video card memory that can handle 1080x4 pixels. >Now things are a little more fair and at least FFmpeg more or less states that is a derivative of Libav with additional features in their download page. I am using the following command to use my Nikon as a webcam: sudo modprobe v4l2loopback && gphoto2 --stdout --capture-movie | ffmpeg -i - -vcodec rawvideo -pix_fmt yuv420p -threads 0 -f v4. Since the program was added to our catalog in 2005, it has managed to obtain 8,107 downloads, and last week it gained 12 downloads. FFmpeg utility supports almost all major audio and video formats, if you want to check the ffmpeg supported available formats you can use. If you are also finding FFmpeg tutorials, you came to the right page. Super-XBR seems to be the best bang for your buck in terms of video quality and performance, but if you have a newer GTX 970 or GTX 1070 you should be able to utilize NNEDI3. Which sets the target video bitrate to 8000 Kbps or 8 Mbps, and the AC-3 audio bitrate, including the pass through bitrate, to 640 Kbps. Avanti comes as a portable. We can extract audio stream from the video file and save audio as a separate file in formats like aac , mp3 , vorbis etc. See the Time duration section in the ffmpeg-utils(1) manual for the accepted syntax. 基于live555的rtsp封装rtspperf ; 4. There are many other FFmpeg command-line options to reduce the size of the gif video. Bit rate : 1 700 kb/s Width : 1 280 pixels Height : 536 pixels Display aspect ratio : 2. Offered by Coursera Project Network. Or, $ ffmpeg -i input. mp4 -vf scale=1920x1080 resizedvideo. In terms of video conversion, the FFmpeg substitute for Mac can convert video of 3D 360 VR, 720P, 1080P, 4K UHD any resolution, any formats, convert MKV to MP4 Mac/Windows, MOV to WMV, FLV to AVI, MP4 to MP3, H. We can convert avi to mp4 with the following command. Reduce the resolution of the input video. Especially on rapid movements, lots of pixelish stuff. Edit MOV files by trimming, cropping, rotating, adding watermarks, applying effects, editing subtitles, etc. FFmpeg is a tool that can be used to edit or convert videos and audios. Any way to increase resolution in DOOM 2016, Wolfenstein II in docked mode? cucholix - Jun 16, 2020 at 1:40 PM. Reduce the resolution of the input video. foobar2000 Super Audio CD Decoder (based on MPEG-4 DST reference decoder) FFmpeg (based on dsd2pcm) Pulse-amplitude modulation (PAM) Lossless compression. Since the program was added to our catalog in 2005, it has managed to obtain 8,107 downloads, and last week it gained 12 downloads. You can specify which algorithm is used for resizing with the -sws_flags option. [FFmpeg-devel,1/7] libavfilter: Adds on the fly generation of default DNN models for tensorflow bac… - - - ----2018-08-06: Sergey Lavrushkin: New [FFmpeg-devel,GSOC] On the fly generation of default DNN models and code style fixes - - - ----2018-07-28: Sergey Lavrushkin: New [FFmpeg-devel,GSOC] ESPCN super-resolution - - - ----2018-06-28. Ffmpeg Convert Rtmp To Rtsp software free downloads. Parallel Super-Resolution. ffmpeg -i yosemiteA. How do I use ffmpeg to get the video resolution? Ask Question Asked 5 years, 7 months ago. If the Replay Mod tells you to install FFmpeg even though you already have, you have to manually tell the Replay Mod where your FFmpeg executable is located. Currently there is a feature. If you want to set a particular resolution to a video file, you can use following command: $ ffmpeg -i input. ffmpeg calls the libavformat library (containing demuxers) to read input files and get packets containing encoded data from them. This is, ffmpeg -i input. 264 high resolution (640-width) for the iPod Jul 1, 2006 - ffmpegX 0. Source for test: 4th ending of the anime "Urusei Yatsura" (© 1981 Pierrot, Studio DEEN): "Hoshizora Cycling" by Virgin VS. 9 (previous version do not have the -target command) Create a VCD VCD has fixed bitrate, you have no choice but to encode using the default settings of 1150kbit/s for video and 224kbit/s for audio. This video is unavailable. The main thing to note about OpenCV is the high performance analysis using 2d pixel matrix. This article provides a complete, ready-to-execute script to obtain, build, and install the FFmpeg suite alongside a selection of audio video codecs, and is a supplement to my detailed guide Compiling Software from Source Code on the Raspberry Pi. Welcome to this 1. ffmpeg -i input. 7 on CentOS with cPanel and I would like to install ffmpeg-php but it tells me that I need php-gd even if it is already installed and working. It picks the ``best'' of each based upon the following criteria: for video, it is the stream with the highest resolution, for audio, it is the stream with the most channels, for subtitles, it is the first subtitle stream. What's new Sep 22, 2006 - Added a new guide: How to encode a movie in h. The easiest way to install ffmpeg is to download a pre-built binary for your specific platform. This reminds me of the XFree86 / x. Org Foundation and is also open source. 9 % Test CRC 548D7B4C Copy CRC 548D7B4C Copy OK Track 3. SUPER Special Edition. m2v Thayer's Quest. The output of this command will change depending on the version of FFmpeg you have. Super Resolution for VirtualDub Promotion Codes. 5 hours long hands-on project on Image Super Resolution using Autoencoders in Keras. - Dual stream output, the main code rate up to 1080p60Hz, and the sub-stream supports 720p 60Hz video encoding. Code apps super-fast - Get hands-on right away. mkv is a Matroska container file and accepts video, audio and subtitle streams, so ffmpeg will try to select one of each type. FFmpeg Cheat Sheet for 360º video. One guy said "work it from the command line. Zoneminder Cgi Bin Path. You can specify the audio and video codecs used by input files. The reason i'm posting here is because I don't want to be "yelled" at Hanbrake forums (they aren't friendly). We consider here a SD video file having square pixels.